You are viewing sacred_doll

Simple Symbol - [HDTV] Dasshutsu Game DERO! - 2010.12.08
.+CrosS+. World through the Stream of Time
sacred_doll
sacred_doll
Share
[HDTV] Dasshutsu Game DERO! - 2010.12.08
Show: Dasshutsu Game DERO!
Date: 2010.12.08
Guest: Yamada Ryosuke, Chinen Yuri, Sato Amina, Kuramochi Asuka
File credit to xdragon1080 and jpn1. Uploaded by me.

Dasshutsu Game DERO! 2010.12.08

It was the first time I saw this game show. In the start I downloaded this show because of the appearance of YamaChii (Hey! Say! JUMP), but later I immediately falling in love with this kind of game show (survivor/knowledge game). Though I could not understand anything in this, I still like it so much and hope that one day someone (or any sub team) will help me find out the meaning of words in each challenge. Well, what I wrote before lead you to the raw file below ;)

Download
.001 - .002 - .003 - .004 - .005

General
Complete name                    : 101208 Dasshutsu Game DERO!.mp4
Format                           : MPEG-4
Format profile                   : Base Media
Codec ID                         : isom
File size                        : 909 MiB
Duration                         : 45mn 22s
Overall bit rate                 : 2 800 Kbps
Encoded date                     : UTC 2010-12-07 12:56:06
Tagged date                      : UTC 2010-12-07 12:56:06

Video
ID                               : 1
Format                           : AVC
Format/Info                      : Advanced Video Codec
Format profile                   : High@L4.2
Format settings, CABAC           : Yes
Format settings, ReFrames        : 3 frames
Codec ID                         : avc1
Codec ID/Info                    : Advanced Video Coding
Duration                         : 45mn 22s
Bit rate mode                    : Variable
Bit rate                         : 2 670 Kbps
Maximum bit rate                 : 17.2 Mbps
Width                            : 1 280 pixels
Height                           : 720 pixels
Display aspect ratio             : 16:9
Frame rate mode                  : Constant
Frame rate                       : 29.970 fps
Color space                      : YUV
Chroma subsampling               : 4:2:0
Bit depth                        : 8 bits
Scan type                        : Progressive
Bits/(Pixel*Frame)               : 0.097
Stream size                      : 866 MiB (95%)
Title                            : Imported with GPAC 0.4.6-DEV (internal rev. 5)
Writing library                  : x264 core 98 r1649 20cbe10
Encoding settings                : cabac=1 / ref=3 / deblock=1:0:0 / analyse=0x3:0x113 / me=hex / subme=7 / psy=1 / psy_rd=1.00:0.00 / mixed_ref=1 / me_range=16 / chroma_me=1 / trellis=0 / 8x8dct=1 / cqm=0 / deadzone=21,11 / fast_pskip=1 / chroma_qp_offset=-2 / threads=12 / sliced_threads=0 / nr=0 / decimate=1 / interlaced=0 / constrained_intra=0 / bframes=3 / b_pyramid=0 / b_adapt=1 / b_bias=0 / direct=1 / weightb=1 / weightp=2 / keyint=250 / keyint_min=25 / scenecut=40 / intra_refresh=0 / rc_lookahead=40 / rc=2pass / mbtree=1 / bitrate=2670 / ratetol=1.0 / qcomp=0.60 / qpmin=10 / qpmax=51 / qpstep=4 / cplxblur=20.0 / qblur=0.5 / vbv_maxrate=31250 / vbv_bufsize=31250 / ip_ratio=1.40 / aq=1:1.00 / nal_hrd=none
Encoded date                     : UTC 2010-12-07 12:56:06
Tagged date                      : UTC 2010-12-07 12:56:25

Audio
ID                               : 2
Format                           : AAC
Format/Info                      : Advanced Audio Codec
Format version                   : Version 4
Format profile                   : LC
Format settings, SBR             : No
Codec ID                         : 40
Duration                         : 45mn 22s
Bit rate mode                    : Variable
Bit rate                         : 128 Kbps
Maximum bit rate                 : 142 Kbps
Channel(s)                       : 2 channels
Channel positions                : Front: L R
Sampling rate                    : 48.0 KHz
Stream size                      : 41.5 MiB (5%)
Encoded date                     : UTC 2010-12-07 12:56:24
Tagged date                      : UTC 2010-12-07 12:56:25
 

Tags: , , , , ,
Current Music: ANIMAL feat.Yoko Yazawa - Inoue JOE (~♥~)

Comments
yuto32 From: yuto32 Date: December 23rd, 2010 05:42 pm (UTC) (Link)
thanks
kurosaki91 From: kurosaki91 Date: December 23rd, 2010 05:56 pm (UTC) (Link)
there are actually 2 teams that have done this, mine and another arashi comm. I don't post subbed video updates on hey_say that's why.
sacred_doll From: sacred_doll Date: December 24th, 2010 06:51 am (UTC) (Link)
thank you for your information. I do not care about AKB48 and Arashi so of course i don't know about this. I will try to search a little bit.

Would I ask for your softsub, please? Cause my connection has its limit so I don't want to re-download the huge file again.
sacred_doll From: sacred_doll Date: December 24th, 2010 07:04 am (UTC) (Link)
Ah, have to say that I like your LJ's background so much. I'm a big fan of Ash's Pikachu too ^^
kurosaki91 From: kurosaki91 Date: December 24th, 2010 12:21 pm (UTC) (Link)
haha thanks XD sorry my comm don't upload softsubs~
gigabytexx From: gigabytexx Date: December 23rd, 2010 07:13 pm (UTC) (Link)
Thank you~! definitely bookmarking this & download it later ( yeah this is me & my stupid internet TAT )

And sorry, this is out of topic, but may I know what layout did you use for this journal? I really like the composition and I'd like to tweak it a bit if you tell me what's the name of this layout.....
sacred_doll From: sacred_doll Date: December 24th, 2010 07:04 am (UTC) (Link)
It was set up for a long time ago so in fact, I cannot remember the name of this layout. I visited the customize page but cannot find out any clue :|. Sorry.
ai_za From: ai_za Date: December 23rd, 2010 11:36 pm (UTC) (Link)
Thank you so much for subbing this. Although there're 2 community subbed this show, but still I'm very thankful. I also like this show. And I was laughing out loud when AKB48 girl couldn't guess the double picture puzzles. The one in the puzzle is one of AKB48 members though lol
And I was surprised because of Chii's balancing ability. I know he's good in acrobatic, but it's just I don't expect that (>_<)

Ah Happy holiday to you
natassak From: natassak Date: January 3rd, 2011 03:10 pm (UTC) (Link)
do you mind telling which 2 communities did the subbing? thanks~
ai_za From: ai_za Date: January 3rd, 2011 09:50 pm (UTC) (Link)
natassak From: natassak Date: January 4th, 2011 01:07 pm (UTC) (Link)
ohh alright! thank you very much!
kanna_fraine From: kanna_fraine Date: December 24th, 2010 02:10 am (UTC) (Link)
Taking~
Thanks ^^
petitetomoyo From: petitetomoyo Date: December 25th, 2010 07:06 pm (UTC) (Link)
thank you so much~!
kadori_chan From: kadori_chan Date: December 27th, 2010 05:28 am (UTC) (Link)
Thank you so much for sharing
sakura_0617 From: sakura_0617 Date: February 11th, 2011 12:01 am (UTC) (Link)
thank you so much for sharing ^^
kodochalover From: kodochalover Date: July 3rd, 2011 12:02 am (UTC) (Link)
THANKS!!!! :D
nintendoninohno From: nintendoninohno Date: September 15th, 2011 03:54 pm (UTC) (Link)
thanks!
twilightstarz28 From: twilightstarz28 Date: October 6th, 2011 06:12 am (UTC) (Link)
Thank you so much for sharing this HD one!!!! <3333
hidders From: hidders Date: June 6th, 2012 04:13 am (UTC) (Link)
Part 3 has been deleted.
msrno From: msrno Date: July 12th, 2012 03:27 pm (UTC) (Link)
Yeah! Can U do something PLZ :(
I really wanna this EP :'(
hidders From: hidders Date: July 14th, 2012 02:06 am (UTC) (Link)
Why are you asking me?
You can get this episode from many other resources, just Google it.
msrno From: msrno Date: July 14th, 2012 05:04 pm (UTC) (Link)
I asked you because I think you can re-upload part 3 ! !
If you can't so I'm sorry oO
I didn't mean bother you ;$
Sorry again <3 :(
& Plz don't bother your self about me OR about this EP =))

Note: I Google it but I didn't found it ^^
hidders From: hidders Date: July 17th, 2012 03:04 pm (UTC) (Link)
This isn't my post/journal, so I can't do anything about it, ask the OP.
You commented at the wrong place, for some reason you clicked 'reply' on my comment for the OP when you should have clicked 'leave a comment'.
msrno From: msrno Date: July 18th, 2012 04:09 pm (UTC) (Link)
OH ! !
Sorry I didn't notice the user ><"
I was thinking who 'reply' me is the OP . .
But now I notice :O
Sorry again I 'reply' you because I agree you ><"
I'm embarrassing right now . .
Just don't care about me PLZ ×.× ! !
Plz accept my apologies <3 "$
kaijin22 From: kaijin22 Date: August 1st, 2012 06:30 am (UTC) (Link)

HSJ

there is an error for file 003, can you help me?? Onegai....
25 comments or Leave a comment
profile
Ngọc Bùi B.
Name: Ngọc Bùi B.
calendar
Back March 2011
12345
6789101112
13141516171819
20212223242526
2728293031
page summary
tags
about this journal
Some people add me as their friend. I only add back when you have an active journal or at least tell me who you are or why you wanna be my friend:).
Sorry but I have a limited memory space in my silly brain, so TT^TT.

free counters